Jul 152014
 

Release Notes

Code:

Transformers Age Of Extinction (2014) HDTS XviD MP3-RARBG

Format            : AVI At 2268 Kbps
Length            : 2.48 GiB For 2h 36mn 25s 326ms

Video #0          : MPEG-4 Visual At 1997 Kbps
Aspect            : 720 x 304 (2.368) At 23.077 FPS

Audio #0          : MPEG Audio At 256 Kbps
Infos            : 2 Channels, 44.1 KHz

Genre            : Action | Adventure | Sci-Fi
iMDB URL          : http://www.imdb.com/title/tt2109248/

Plot
A mechanic and his family join the Autobots as they are targeted by a bounty hunter from another world.


Screens

Sample

DownLoad

Single Links

OBoom

RapidGator

Uploaded.to

TeraFile

Sharing Forums

Jul 112014
 

************************************************************
Hercules Reborn (2014) HDRip XviD AC3-EVO
File Size: 1.33 GiB

************************************************************

INFO:

CODE
General
Complete name                            : Hercules.Reborn.2014.HDRip.XviD.AC3-EVO.avi
Format                                   : AVI
Format/Info                              : Audio Video Interleave
File size                                : 1.33 GiB
Duration                                 : 1h 34mn
Overall bit rate                         : 2 004 Kbps
Writing library                          : VirtualDub build 32593/release

Video
ID                                       : 0
Format                                   : MPEG-4 Visual
Format profile                           : Advanced Simple@L5
Format settings, BVOP                    : 2
Format settings, QPel                    : No
Format settings, GMC                     : No warppoints
Format settings, Matrix                  : Default (H.263)
Muxing mode                              : Packed bitstream
Codec ID                                 : XVID
Codec ID/Hint                            : XviD
Duration                                 : 1h 34mn
Bit rate                                 : 1 611 Kbps
Width                                    : 720 pixels
Height                                   : 400 pixels
Display aspect ratio                     : 16:9
Frame rate                               : 23.976 fps
Color space                              : YUV
Chroma subsampling                       : 4:2:0
Bit depth                                : 8 bits
Scan type                                : Progressive
Compression mode                         : Lossy
Bits/(Pixel*Frame)                       : 0.233
Stream size                              : 1.07 GiB (80%)
Writing library                          : XviD 64

Audio
ID                                       : 1
Format                                   : AC-3
Format/Info                              : Audio Coding 3
Mode extension                           : CM (complete main)
Format settings, Endianness              : Big
Codec ID                                 : 2000
Duration                                 : 1h 34mn
Bit rate mode                            : Constant
Bit rate                                 : 384 Kbps
Channel(s)                               : 6 channels
Channel positions                        : Front: L C R, Side: L R, LFE
Sampling rate                            : 48.0 KHz
Bit depth                                : 16 bits
Compression mode                         : Lossy
Stream size                              : 260 MiB (19%)
Alignment                                : Aligned on interleaves
Interleave, duration                     : 42 ms (1.00 video frame)
Interleave, preload duration             : 512 ms

iMDB:

CODE
http://www.imdb.com/title/tt3499424/

Single Extraction | No Password | Interchangeable Links: | Working 100% |

CODE
http://www.ddlstorage.com/4l62uphndy04/Hercules.Reborn.2014.HDRip.EVO.part1.rar.htm
http://www.ddlstorage.com/waba6zx2td1f/Hercules.Reborn.2014.HDRip.EVO.part2.rar.htm
http://www.ddlstorage.com/uk0b7y3kjghv/Hercules.Reborn.2014.HDRip.EVO.part3.rar.htm

http://rapidgator.net/file/6d37a262b0c0fd1f732dbaf784784ef4/Hercules.Reborn.2014.HDRip.EVO.part1.rar.html
http://rapidgator.net/file/1789f3ea1eaf8302b46c0cabf00401b4/Hercules.Reborn.2014.HDRip.EVO.part2.rar.html
http://rapidgator.net/file/4860109556da44b5a7f86520ea3f9fca/Hercules.Reborn.2014.HDRip.EVO.part3.rar.html

http://ul.to/jxt5eltk/Hercules.Reborn.2014.HDRip.EVO.part1.rar
http://ul.to/bgkshhza/Hercules.Reborn.2014.HDRip.EVO.part2.rar
http://ul.to/4c96m71y/Hercules.Reborn.2014.HDRip.EVO.part3.rar

http://k2s.cc/file/00bfa96d4524c/Hercules.Reborn.2014.HDRip.EVO.part1.rar
http://k2s.cc/file/4b38afa6f98bd/Hercules.Reborn.2014.HDRip.EVO.part2.rar
http://k2s.cc/file/296638bb1e3c6/Hercules.Reborn.2014.HDRip.EVO.part3.rar

DOWNLOAD SINGLE LINKS:

CODE
http://www.ddlstorage.com/bww67abatqo3/Hercules.Reborn.2014.HDRip.EVO.SingLE.rar.htm
http://rapidgator.net/file/711e355d478a3b7d86fbf7ae8bfed3d4/Hercules.Reborn.2014.HDRip.EVO.SingLE.rar.html
http://ul.to/h0sltgvy/Hercules.Reborn.2014.HDRip.EVO.SingLE.rar
http://k2s.cc/file/23b9d39ac9c23/Hercules.Reborn.2014.HDRip.EVO.SingLE.rar

I HAVE BACKUP, DONT WORRY ABOUT DEAD LINKS, PLEASE SEND ME PM, AND I WILL REUP ANY LINK
Extreme Pirate

Jul 102014
 

Sabotage 2014 WEB-DL XviD MP3-RARBG
Language: English
Size: (1.38 GiB), duration: 01:49:41, avg.bitrate: 1803 kb/s
Audio: MP3 192 kb/s
Video: 720×390
Genre: Action | Crime | Drama
iMDB iNFO

Provider: Lori.Yagami

Members of an elite DEA task force find themselves being taken down one by one after they rob a drug cartel safe house.

QUOTE

Buy Premium Account & Support me to post more stuff for you.

CODE
http://www.ddlstorage.com/7vp77oxhg4py/Sabotage.2014.WEB-DL.XviD.MP3-RARBG.rar.htm


CODE
https://www.secureupload.eu/qysjdzcbm5kx/Sabotage.2014.WEB-DL.XviD.MP3-RARBG.rar


CODE
http://rapidgator.net/file/de758760acbc87ca846e2d3a156aca15/Sabotage.2014.WEB-DL.XviD.MP3-RARBG.rar.html


Extreme Pirate

Jul 102014
 

Transcendence 2014 BRRip XviD AC3-SANTi
Language: English
Size: 1863749632 bytes (1.74 GiB), duration: 01:59:16, avg.bitrate: 2084 kb/s
Audio: ac3, 48000 Hz, 5:1, 448 kb/s
Video: mpeg4, yuv420p, 720×304, 23.98 fps®
Genre: Drama / Mystery / Thriller
CODE
http://www.imdb.com/title/tt2209764/

As Dr. Will Caster works toward his goal of creating an omniscient, sentient machine, a radical anti-technology organization fights to prevent him from establishing a world where computers can transcend the abilities of the human brain.

Buy RapidGator Premium Account From My Download Links before downloading, to have max speed and resumable download.

CODE
https://www.ddlstorage.com/y60flh4cr5y2/Transcendence_brrip.rar.htm

CODE
http://rapidgator.net/file/569e877cef1f302ce0a04b69ef97fdab/Transcendence_brrip.rar.html

Extreme Pirate

Jul 092014
 

Transcendence 2014 480p BRRip XviD AC3-EVO
Language: English
Size: 1863457788 bytes (1.74 GiB), duration: 01:59:16, avg.bitrate: 2083 kb/s
Audio: ac3, 48000 Hz, 5:1, 448 kb/s
Video: mpeg4, yuv420p, 720×304, 23.98 fps®
Genre: Drama / Mystery / Thriller
IMDB

Provider: Lori.Yagami

As Dr. Will Caster works toward his goal of creating an omniscient, sentient machine, a radical anti-technology organization fights to prevent him from establishing a world where computers can transcend the abilities of the human brain.

Screenshot

QUOTE

Buy Premium Account & Support me to post more stuff for you.

CODE
https://www.ddlstorage.com/co8yniuh5gc8/Transcendence_2014_480p_BRRip_XviD_AC3_EVO.rar.htm


CODE
https://www.secureupload.eu/8nwcfb5mg3j5/Transcendence_2014_480p_BRRip_XviD_AC3_EVO.rar


CODE
http://rapidgator.net/file/2d4299ab321411219fb45a1833c3936e/Transcendence_2014_480p_BRRip_XviD_AC3_EVO.rar.html


Extreme Pirate